STREAM (PC何でも掲示板)のクチコミ掲示板検索結果

> > STREAM (PC何でも掲示板)のクチコミ掲示板検索結果

"STREAM"を検索した結果 14件中1〜14 件目を表示
(検索時間:6.152 sec)


[21386808] 「Radikool」で、予約録音が頻繁に途切れる

 (PC何でも掲示板)
2017/11/26 16:44:43(最終返信:2017/11/27 15:13:41)

[21386808]...-C S: -C S:KDgmmAD1sMW0wrMIWPo0ww -y "simul-stream.stream?ucid=null" 2017/11/25 19:52:48 YFM_201711251929_68...詳細


[17998193] FlashでATI Stream対応は無理?

 (PC何でも掲示板)
2014/09/30 13:43:26(最終返信:2014/09/30 17:18:50)

[17998193]...DXVAだとうまく動かなくてカクカクしたりします。 FHD 120fpsとか。 そこでATI Stream(DirectCompute)を使って動画を再生できたらいいなと思うのですが、 こういうことは現状できないのですか...詳細


[16355446] FLVの変換がうまくいかない...

 (PC何でも掲示板)
2013/07/11 20:01:51(最終返信:2013/07/11 20:09:29)

[16355446]... Stream #0.0: Video: h264 (Main), yuv420p, 854x480, 885 kb/s, 25 tbr, 1k tbn, 50 tbc Stream #0... Stream #0.0: Video: h264 (Main), yuv420p, 640x480, 511 kb/s, 25 tbr, 1k tbn, 50 tbc Stream #0...e : 1017 Kbps Video Codec Info (Default Stream) ------------------------------------ Vid...詳細


[15538793] 今手元に50万円あります。最高のパソコン

 (PC何でも掲示板)
2012/12/28 09:35:18(最終返信:2012/12/29 18:42:20)

[15538793]...GPUにより名称や効果が変わります。 intelはQSV、NVIDIAがCUDA、AMDではATI Stream(名称変わったかもしれない)と 用途からしますと、ビデオカードは、Quadroをお勧めしますね...詳細


[13670451] A's Video Converter(ATI Stream)の入力ファイル形式

 (PC何でも掲示板)
2011/10/24 01:28:21(最終返信:2011/10/25 23:56:21)

[13670451]...Dvix形式やWMV形式などを入力ファイルソースにすることは可能でしょうか? mpgは問題なく入力できmp4に変換出来ました。 実際に試せばいいじゃないですか。 サンプルファイルもネットで山のように落ちてます。 http://www.katch.ne.jp/~kakonacl/sankoh/movies/sample....詳細


[13271247] BTOパソコンの構成についてご教授ください。

 (PC何でも掲示板)
2011/07/19 13:26:04(最終返信:2011/07/20 15:29:31)

[13271247]...CPUorGPU? GPUを使ってエンコするなら、QSVやCUDAにATI Streamなどがあるが、どれでか? CUDAやATI Streamは、使わないというのであれば、内蔵GPUで十分です。ビデオカード別途購入は不要...詳細


[12215914] PC自作の醍醐味を語るスレ Part.17

 (PC何でも掲示板)
2010/11/14 18:34:59(最終返信:2010/12/06 00:26:40)

[12215914]...上のリンクと同様、CPU値が異常に高いです。OFFにすれば画像2のようになり、これが実力でしょう。ATI Streamにも対応したテストであれば、ある程度フェアな比較にもなるのですが。。 一方、HD5870 3WAYは画像3のようになります...詳細


[11922514] PC自作の醍醐味を語るスレ Part.15

 (PC何でも掲示板)
2010/09/17 07:18:12(最終返信:2010/10/09 01:00:42)

[11922514]...ご使用の方もいらっしゃると思いますが 980X(12スレッド)対応のエンコードソフトが出ていますね!! 更に、Cuda、Streamにも対応している秀逸なソフトの様です(^^; (64bitネイティブでは無いけど・・・) 価格はダウンロード版で...詳細


[11848213] PC自作の醍醐味を語るスレ Part.14

 (PC何でも掲示板)
2010/09/02 00:16:42(最終返信:2010/09/17 07:23:30)

[11848213]...は、私も持っていますよ ただ、OS再インストしたのでStreamごと消えましたけど(^^; Streamのアカは残ってますし、判っているのですが Window...。 B.B.[JPN]さん どもども、Steamだったのですね 私は、てっきり「Stream」だと思ってました(^^; SpeedBoostを使わないでも、MODなら極限まで...も連絡は可能ですね〜 さて、差をつけるために走りこむかな(ぇ Tombaさん Streamですか…城達也のJetStreamはよく聞いてましたw セーブデータはドキュメント...詳細


[11546872] PC自作の醍醐味を語るスレ Part.10

 (PC何でも掲示板)
2010/06/26 14:41:06(最終返信:2010/07/10 13:52:34)

[11546872]...Stream ではないかと。。 いろいろ比較テストしてみようと思っています。 VladPutinさん 今のところ CPU > CUDA > ATI Stream...って電源上げずに数日経ってしまいそうです。) >CPU > CUDA > ATI Stream 確かに。。。エンコーダのロジック次第だと思うのですが、今のところGPGPUがいかに...号と2号の比較で3ヶ月の伸びを比較して見ます。 >CPU > CUDA > ATI Stream (少しだけ)比較してるものがあったので。 http://www.dosv.jp/o...詳細


[11369023] PC自作って楽しいよね! Part7

 (PC何でも掲示板)
2010/05/16 20:35:57(最終返信:2010/05/28 23:27:32)

[11369023]...http://store.steampowered.com/about/   ↑ まず、ココでStreamを落とします。 VladPutinさん 次のステップです。 1.新しいアカウントを作成する 2.Steam...詳細


[11222689] 自作PCに初チャレンジなのでアドバイスお願いします!

 (PC何でも掲示板)
2010/04/12 13:38:01(最終返信:2010/04/21 21:52:26)

[11222689]...GTS250のほうがお得そうですね。RADEON HD5770は少し考えましたが、GPGPUのATI Streamがまだまだだなと思ったので今回は辞めにします。今後に期待したいですね。 >Lacus Clyneさん...詳細


[8166062] インターネット通販で購入に不安が有ります。

 (PC何でも掲示板)
2008/08/04 07:55:52(最終返信:2008/08/07 19:44:27)

[8166062]...10万だせばサクサクVISTAが動くPCが組めます。 http://www.tsukumo.co.jp/bto/aero_stream_2.html 尚、個人で購入可能なOSのライセンス形態(パッケージ版・DSP版)は以下リンクを参照してください...詳細


[5045810] ビデオメモリの増加方法

 (PC何でも掲示板)
2006/05/03 12:04:11(最終返信:2006/06/25 13:07:01)

[5045810]...ハイエンドじゃなくてもいいので http://www.tsukumo.co.jp/bto/aero_stream_2.html#j100_6101C この\59,800-のPCみたいなのに買い換えたほうがいろんな面でよっぽど快適かもしれません...詳細