STREAM (薄型テレビ・液晶テレビ)のクチコミ掲示板検索結果

ホーム > クチコミ掲示板 > STREAM (薄型テレビ・液晶テレビ)のクチコミ掲示板検索結果

"STREAM"を検索した結果 35件中1〜20 件目を表示
(検索時間:0.025 sec)


[23746051] ブラウザについて

 (薄型テレビ・液晶テレビ > SONY > BRAVIA KJ-65X9500H [65インチ])
2020/10/24 20:23:06(最終返信:2020/10/25 21:29:36)

[23746051] ...ZAIKO stagecrowd Streaming+ baronstream PIA LIVE STREAM hulu LINE LIVE-VIEW 例えば配信サイトが上記の様に指定がある場合はスマートフォンやパソコン(ブラウザ)... 詳細


[23675859] ぴあ 動画配信 PIA LIVE STREAM 稼働は可能?

 (薄型テレビ・液晶テレビ > SONY > BRAVIA KJ-55X9500H [55インチ])
2020/09/20 19:05:09(最終返信:2020/09/28 23:09:23)

[23675859] ...このテレビの、ブラウザは何でしょうか? ぴあ 動画配信 PIA LIVE STREAM を見たいのですが 稼働させることは可能でしょうか? SONYとぴあのサイトを確認...合があるとの逃げの記載しか見当たりません。 購入されている方で、PIA LIVE STREAMの稼働ができた、できないなどの情報がありましたら教えてください。 稼働できれば、安...r.jp/efriends/browsercheck.html PIA LIVE STREAMのトップページにあった、動作確認用の動画も、問題なく再生できました。 初期設定ではツ... 詳細


[23089885] HDD Silicon Powerは対応できる?

 (薄型テレビ・液晶テレビ > ハイセンス > 43A6800 [43インチ])
2019/12/06 02:53:50(最終返信:2019/12/06 23:04:27)

[23089885] ...43A6800に対応しているかご存知の方はいますか? https://www.silicon-power.com/web/product-Stream_S06 を見ると、「動作電圧」が「12V」って書いてありますが、電源はどのように取る予定なのでしょうか... 詳細


[22125660] ニュースリリースによれば4本のHDMIで接続するらしいが

 (薄型テレビ・液晶テレビ > シャープ > LV-85001 [85インチ])
2018/09/21 12:44:30(最終返信:2018/09/22 16:21:47)

[22125660] ...1』は8K120フレームには対応していませんよ。 >次世代スーパーハイビジョンさん 一応、DSC(Display Stream Compression)を使用することで、 HDMI2.1で8K120p転送は可能ですよ。 >ヤスダッシュさん... 詳細


[20423465] YouTubeのアプリで4K動画を見るとノイズが走る

 (薄型テレビ・液晶テレビ > SONY > BRAVIA KJ-49X8300D (B) [49インチ ブラック])
2016/11/24 17:24:42(最終返信:2016/12/06 09:45:48)

[20423465] ...今確認したところ以前4K再生できていた動画も時折2560x1440になったり安定していませんでした。 推測ですが、、動画が配信されるStream HostがパソコンとPS4Proが同じホスト、テレビとプレーヤーが同じホストでした。どの接続... 詳細


[20042159] HDDの選択で迷ってます。誰かご教授下さい。

 (薄型テレビ・液晶テレビ > 東芝 > REGZA 49Z700X [49インチ])
2016/07/16 13:05:54(最終返信:2016/08/07 08:53:21)

[20042159] ...タイムシフト録画用として売られているハードディスクは24時間365日稼働しても 耐えられるHDDが採用されています。 Video Stream用とかです。 3.5インチハードディスクもどれも同じものでは無く 用途に応じた仕様のものがあります...用途に応じた仕様のものがあります。 産業用、サーバー用、監視カメラ用など。 タイムシフト録画用や長時間録画用にはVideo Stream用が多く採用されてるようです。 http://toshiba.semicon-storage.... 詳細


[19738936] タイムシフト録画用HDDに普通のHDDは使えますか?

 (薄型テレビ・液晶テレビ > 東芝 > REGZA 55J20X [55インチ])
2016/03/29 09:23:34(最終返信:2016/04/05 20:08:46)

[19738936] ...0ハードディスクも家ではすべて認識すらしなかったです。 タイムシフト録画専用ハードディスクは、長時間稼働に強いVideo Stream 用HDDが内蔵されてます。 通常の外付けHDDはデスクトップ向けHDDが普通で24時間365日稼働を想定してないものです... 詳細


[19436926] タイムシフトマシンHDD 選択肢

 (薄型テレビ・液晶テレビ > 東芝 > REGZA 65Z20X [65インチ])
2015/12/26 22:34:23(最終返信:2016/01/04 18:03:33)

[19436926] ...0TU3/Vの内蔵HDDは東芝製DT01ABA200Vが2台搭載されていました。 これはVideo Stream HDDとして家電、産業システム、車載用として最適化されてるモデルのようです。 大きな違いは回転数が5... 詳細


[19062379] パソコンと繋げますか?

 (薄型テレビ・液晶テレビ > 東芝 > REGZA 55J8 [55インチ])
2015/08/18 15:34:02(最終返信:2015/08/22 08:24:40)

[19062379] ...8でも同じです。 http://windows.microsoft.com/ja-jp/windows7/stream-your-media-to-devices-and-computers-using-windows-media-player... 詳細


[18078490] CMスキップ

 (薄型テレビ・液晶テレビ > LGエレクトロニクス > Smart TV 32LB5810 [32インチ])
2014/10/22 10:31:46(最終返信:2014/10/30 12:38:11)

[18078490] ...myシアター、facebook、Twitter、skype、MuseumPurescreenHD、U-Stream、BerlinerPhilhrmoniker、vTuner、AssociatedPress、AccuWeather... 詳細


[16371505] REGZA 42Z3 での動画再生(FLV)

 (薄型テレビ・液晶テレビ > 東芝 > REGZA 42Z3 [42インチ])
2013/07/16 11:08:29(最終返信:2013/07/16 17:09:15)

[16371505] ...kb/s Stream #0.0: Video: h264 (Main), yuv420p, 854x480, 885 kb/s, 25 tbr, 1k tbn, 50 tbc Stream #0.1:...kb/s Stream #0.0: Video: h264 (Main), yuv420p, 640x480, 511 kb/s, 25 tbr, 1k tbn, 50 tbc Stream #0.1:...te : 1017 Kbps Video Codec Info (Default Stream) ------------------------------------ Vid... 詳細


[15191990] AVCHD Progressive、AVCHD Ver2.0について

 (薄型テレビ・液晶テレビ > 日立 > Wooo L37-XP03 [37インチ])
2012/10/11 23:23:23(最終返信:2012/10/19 13:54:07)

[15191990] ...ロードした108060p.mtsをSDカードのPRIVATE\AVCHD\DBMV\STREAM内の00000.MTSとリネームして置き換える) http://av.watch.i...て見ましたが、TVでは再生できませんでした。 PRIVATE\AVCHD\DBMV\STREAM とフォルダを作っていれても駄目でした。 しかし、普通のAVCHD(SONYのDSC...見ましたが、TVでは再生できませんでした。 >PRIVATE\AVCHD\DBMV\STREAM とフォルダを作っていれても駄目でした。 AVCHD対応のデジカメで動画撮影された... 詳細


[14210417] セッティング出ました

 (薄型テレビ・液晶テレビ > 東芝 > REGZA 55X3 [55インチ])
2012/02/27 09:30:07(最終返信:2012/03/01 17:29:39)

[14210417] ...裸眼3D無しで価格下げればそのうち手が届くかも? スレ主さん 本当に素晴らしい買い物おめでとうございます! Direct Stream Digitalさん 嬉しいコメントありがとうございます 東芝の方の努力も報われる事でしょう 裸眼3Dに関しては...でも、今年のCEATEC JAPANが楽しみですね。 今後も東芝に期待します。 Direct Stream Digitalさん 2視にしてトラッキング掛けましたか? やらないと残念な画像になります >sakepower-sさん... 詳細


[13968689] DLNA機能を使っての配信の仕方等

 (薄型テレビ・液晶テレビ > 日立 > Wooo L32-XP07 [32インチ])
2012/01/02 01:45:45(最終返信:2012/01/03 01:48:19)

[13968689] ...TSモードでしたね。 DR(Direct Recording) TS(Transporting Stream) どちらも放送波をそのまま録画するモードで、呼び方が違うだけです。 何度もすいません... 詳細


[13808810] 動画ファイルを42Z2から見られるようにするには?

 (薄型テレビ・液晶テレビ > 東芝 > LED REGZA 42Z2 [42インチ])
2011/11/24 22:41:13(最終返信:2011/11/28 00:17:14)

[13808810] ...Bits/(Pixel*Frame) : 0.475 Stream size : 2.23 GiB (95%)...Compression mode : Lossy Stream size : 109 MiB (5%)... 詳細


[13422703] Windows 7 WMP12

 (薄型テレビ・液晶テレビ > 東芝 > LED REGZA 42Z2 [42インチ])
2011/08/26 23:36:43(最終返信:2011/08/27 07:41:17)

[13422703] ...com/ja-JP/windows7/using-the-play-to-feature-to-stream-media ちなみに、リモート再生 (Play To) についての説明ページの英語版 (米国版)... 詳細


[12948605] 見られる動画形式(MPEG)の細かい仕様

 (薄型テレビ・液晶テレビ > 日立 > Wooo L32-XP05 [32インチ])
2011/04/29 00:54:40(最終返信:2011/05/11 23:17:24)

[12948605] ...Studioで変換せずに見る方法はないものでしょうか ごく稀なケースですが、コンテナファイルに問題がある場合にSuper CのStream copy出力で対応できる事があります。 あと、DLNAサーバーには何をお使いでしょうか? もしPC用のDLNAサーバーソフトをお使いでしたら... 詳細


[12661651] SDカードを経由して直接ZG1で動画再生可能な録画機器は?

 (薄型テレビ・液晶テレビ > 東芝 > LED REGZA 47ZG1 [47インチ])
2011/02/15 23:04:25(最終返信:2011/03/10 11:41:03)

[12661651] ...「multiAVCHD」を使って、 動画変換してレグザZ1で見れるのか確かめました。 4つのMTSファイルがSTREAMフォルダに出来上がり、 レグザのSDスロットからでも何とか映るように変換できました。 最初は、「デスクトップ」という日本語フォルダの中にサンプル動画を... 詳細


[12065357] 購入情報共有

 (薄型テレビ・液晶テレビ > 東芝 > LED REGZA 47Z1 [47インチ])
2010/10/15 22:18:55(最終返信:2010/10/18 22:56:50)

[12065357] ...私もこれからの参考にさせていただきます。 軽井沢STREAMさんには負けちゃいましたが非常に満足してます。 みなさんもがんばってください 本日、軽井沢STREAMさんのデーターをもとに江東区の汐入のLABIへ出陣してまいりましたが... 詳細


[12069633] 地方購入情報【栃木】

 (薄型テレビ・液晶テレビ > 東芝 > LED REGZA 47Z1 [47インチ])
2010/10/16 19:57:23(最終返信:2010/10/17 14:09:19)

[12069633] ... そうですかね〜? ポイントの記載がなかったのでないものとしてコメントしました。 ↓の軽井沢STREAMさんの購入を見る限り、 205,000円ポイント25%(実質153,750円)+5年間保証+HDD500GB+シンプルリモコンですよ... 詳細